<?xml version="1.0" standalone="no"?>
<!DOCTYPE svg PUBLIC "-//W3C//DTD SVG 1.1//EN" "http://www.w3.org/Graphics/SVG/1.1/DTD/svg11.dtd" >
<svg xmlns="http://www.w3.org/2000/svg">
<metadata>Generated by IcoMoon</metadata>
<defs>
<font id="icomoon" horiz-adv-x="1024">
<font-face units-per-em="1024" ascent="960" descent="-64" />
<missing-glyph horiz-adv-x="1024" />
<glyph unicode="&#x20;" horiz-adv-x="512" d="" />
<glyph unicode="&#xe900;" glyph-name="csshero-3-icons-01" d="M640 614.4h-25.6v-25.6h-204.8v25.6h-76.8v-76.8h25.6v-204.8h-25.6v-76.8h76.8v25.6h204.8v-25.6h76.8v76.8h-25.6v204.8h25.6v76.8h-51.2zM358.4 588.8h25.6v-25.6h-25.6v25.6zM358.4 281.6v25.6h25.6v-25.6h-25.6zM665.6 281.6h-25.6v25.6h25.6v-25.6zM640 332.8h-25.6v-25.6h-204.8v25.6h-25.6v204.8h25.6v25.6h204.8v-25.6h25.6v-204.8zM640 563.2v25.6h25.6v-25.6h-25.6z" />
<glyph unicode="&#xe901;" glyph-name="csshero-3-icons-02" d="M365.696 529.459c-16.819-22.938-28.39-49.946-32.896-79.309h112.205l-79.309 79.309zM332.8 394.65c4.506-29.363 16.077-56.371 32.896-79.309l79.309 79.309h-112.205zM484.25 601.6c-29.363-4.506-56.371-16.077-79.309-32.896l79.309-79.309c0 0 0 112.205 0 112.205zM404.941 276.096c22.938-16.819 49.946-28.39 79.309-32.896v112.205l-79.309-79.309zM691.2 450.15c-4.506 29.363-16.077 56.371-32.896 79.309l-79.309-79.309h112.205zM619.059 568.704c-22.938 16.819-49.946 28.39-79.309 32.896v-112.205l79.309 79.309zM539.75 243.2c29.363 4.506 56.371 16.077 79.309 32.896l-79.309 79.309v-112.205zM578.995 394.65l79.309-79.309c16.819 22.938 28.39 49.946 32.896 79.309h-112.205z" />
<glyph unicode="&#xe902;" glyph-name="csshero-3-icons-03" d="M486.4 512h51.2v-51.2h-51.2v51.2zM588.8 512h51.2v-51.2h-51.2v51.2zM537.6 460.8h51.2v-51.2h-51.2v51.2zM435.2 460.8h51.2v-51.2h-51.2v51.2zM384 409.6h51.2v-51.2h-51.2v51.2zM486.4 409.6h51.2v-51.2h-51.2v51.2zM588.8 409.6h51.2v-51.2h-51.2v51.2zM307.2 588.8h384v-25.6h-384v25.6zM307.2 307.2h384v-25.6h-384v25.6zM691.2 588.8h25.6v-307.2h-25.6v307.2zM307.2 588.8h25.6v-307.2h-25.6v307.2zM384 512h51.2v-51.2h-51.2v51.2z" />
<glyph unicode="&#xe903;" glyph-name="csshero-3-icons-04" d="M307.2 332.8v-51.2h102.4v25.6h-76.8v76.8h-25.6v-51.2zM665.6 281.6h51.2v102.4h-25.6v-76.8h-76.8v-25.6h51.2zM716.8 537.6v51.2h-102.4v-25.6h76.8v-76.8h25.6v51.2zM384 588.8h-76.8v-102.4h25.6v76.8h76.8v25.6h-25.6z" />
<glyph unicode="&#xe904;" glyph-name="csshero-3-icons-05" d="M371.2 614.4h25.6v-76.8h-25.6v76.8zM627.2 614.4h25.6v-76.8h-25.6v76.8zM448 281.6h128v-25.6h-128v25.6zM371.2 614.4h281.6v-25.6h-281.6v25.6zM499.2 588.8h25.6v-307.2h-25.6v307.2z" />
<glyph unicode="&#xe905;" glyph-name="csshero-3-icons-06" d="M307.2 307.2h384v-25.6h-384v25.6zM691.2 588.8h25.6v-307.2h-25.6v307.2zM307.2 358.4h25.6v-25.6h-25.6v25.6zM307.2 409.6h25.6v-25.6h-25.6v25.6zM307.2 460.8h25.6v-25.6h-25.6v25.6zM307.2 512h25.6v-25.6h-25.6v25.6zM307.2 563.2h25.6v-25.6h-25.6v25.6zM307.2 588.8h25.6v-25.6h-25.6v25.6zM332.8 588.8h25.6v-25.6h-25.6v25.6zM384 588.8h25.6v-25.6h-25.6v25.6zM435.2 588.8h25.6v-25.6h-25.6v25.6zM486.4 588.8h25.6v-25.6h-25.6v25.6zM537.6 588.8h25.6v-25.6h-25.6v25.6zM588.8 588.8h25.6v-25.6h-25.6v25.6zM640 588.8h25.6v-25.6h-25.6v25.6z" />
<glyph unicode="&#xe906;" glyph-name="csshero-3-icons-07" d="M384 563.2h51.2v-51.2h-51.2v51.2zM486.4 563.2h51.2v-51.2h-51.2v51.2zM588.8 563.2h51.2v-51.2h-51.2v51.2zM588.8 460.8h51.2v-51.2h-51.2v51.2zM486.4 460.8h51.2v-51.2h-51.2v51.2zM384 460.8h51.2v-51.2h-51.2v51.2zM384 358.4h51.2v-51.2h-51.2v51.2zM486.4 358.4h51.2v-51.2h-51.2v51.2zM588.8 358.4h51.2v-51.2h-51.2v51.2z" />
<glyph unicode="&#xe907;" glyph-name="csshero-3-icons-08" d="M307.2 307.2h384v-25.6h-384v25.6zM691.2 588.8h25.6v-307.2h-25.6v307.2zM307.2 358.4h25.6v-25.6h-25.6v25.6zM307.2 409.6h25.6v-25.6h-25.6v25.6zM307.2 460.8h25.6v-25.6h-25.6v25.6zM307.2 512h25.6v-25.6h-25.6v25.6zM307.2 563.2h25.6v-25.6h-25.6v25.6zM307.2 588.8h25.6v-25.6h-25.6v25.6zM332.8 588.8h25.6v-25.6h-25.6v25.6zM384 588.8h25.6v-25.6h-25.6v25.6zM435.2 588.8h25.6v-25.6h-25.6v25.6zM486.4 588.8h25.6v-25.6h-25.6v25.6zM537.6 588.8h25.6v-25.6h-25.6v25.6zM588.8 588.8h25.6v-25.6h-25.6v25.6zM640 588.8h25.6v-25.6h-25.6v25.6z" />
<glyph unicode="&#xe908;" glyph-name="toggle-preview-mode" d="M512 297.062c-87.27 0-169.216 41.651-230.707 117.274l-6.579 8.064 6.579 8.064c61.491 75.622 143.437 117.274 230.707 117.274s169.216-41.651 230.707-117.274l6.579-8.064-6.579-8.064c-61.491-75.648-143.437-117.274-230.707-117.274zM307.917 422.4c55.68-64.435 127.795-99.738 204.083-99.738s148.403 35.328 204.083 99.738c-55.68 64.435-127.795 99.738-204.083 99.738s-148.403-35.302-204.083-99.738zM563.2 422.4c0-28.277-22.923-51.2-51.2-51.2s-51.2 22.923-51.2 51.2c0 28.277 22.923 51.2 51.2 51.2s51.2-22.923 51.2-51.2z" />
<glyph unicode="&#xe909;" glyph-name="toggle-css-editor" d="M594.099 295.68l108.621 108.621c10.010 10.010 10.010 26.214 0 36.198l-108.621 108.621c-9.984 9.984-26.214 10.010-36.198 0-10.010-10.010-9.984-26.214 0-36.198l90.496-90.522-90.522-90.522c-10.010-10.010-9.984-26.214 0-36.198 10.010-9.984 26.24-9.984 36.224 0zM429.901 549.12l-108.621-108.621c-10.010-10.010-10.010-26.214 0-36.198l108.621-108.621c9.984-9.984 26.214-10.010 36.198 0 10.010 10.010 9.984 26.214 0 36.198l-90.496 90.522 90.522 90.522c10.010 10.010 9.984 26.214 0 36.198-10.010 9.984-26.24 9.984-36.224 0z" />
<glyph unicode="&#xe90a;" glyph-name="lister" d="M384 563.2h256v-25.6h-256v25.6zM384 460.8h153.6v-25.6h-153.6v25.6zM384 358.4h256v-25.6h-256v25.6zM640 409.6h-25.6v25.6h-25.6v25.6h25.6v25.6h25.6v-76.8z" />
<glyph unicode="&#xe90b;" glyph-name="all-devices" d="M512 384h-179.2v204.8h358.4v24.986c0 14.464-11.469 26.214-25.626 26.214h-358.349c-14.157 0-25.626-11.75-25.626-26.214v-229.786h-51.2v-21.274c0-16.538 11.11-29.926 24.832-29.926h256.768v51.2zM742.144 537.6h-153.344c-14.131 0-25.6-11.571-25.6-25.856v-255.488c0-14.285 11.469-25.856 25.6-25.856h153.344c14.131 0 25.6 11.571 25.6 25.856v255.488c0 14.285-11.443 25.856-25.6 25.856zM665.6 256c-14.131 0-25.6 11.469-25.6 25.6s11.469 25.6 25.6 25.6 25.6-11.469 25.6-25.6-11.469-25.6-25.6-25.6zM716.8 332.8h-102.4v153.6h102.4v-153.6z" />
<glyph unicode="&#xe90c;" glyph-name="mob" d="M587.981 588.8h-151.987c-14.566 0-26.394-11.11-26.394-24.832v-257.536c0-13.722 11.827-24.832 26.419-24.832h151.987c14.566 0 26.394 11.11 26.394 24.832v257.536c0 13.722-11.827 24.832-26.419 24.832v0zM512 307.2c-14.131 0-25.6 11.469-25.6 25.6s11.469 25.6 25.6 25.6c14.131 0 25.6-11.469 25.6-25.6s-11.469-25.6-25.6-25.6zM563.2 384h-102.4v153.6h102.4v-153.6z" />
<glyph unicode="&#xe90d;" glyph-name="tab" d="M664.781 665.6h-305.562c-14.592 0-26.419-11.11-26.419-24.832v-411.136c0-13.722 11.827-24.832 26.419-24.832h305.587c14.566 0 26.394 11.11 26.394 24.832v411.136c0 13.722-11.827 24.832-26.419 24.832v0zM512 230.4c-14.131 0-25.6 11.469-25.6 25.6s11.469 25.6 25.6 25.6c14.131 0 25.6-11.469 25.6-25.6s-11.469-25.6-25.6-25.6v0zM640 307.2h-256v307.2h256v-307.2z" />
<glyph unicode="&#xe90e;" glyph-name="var-2" d="M614.4 563.2h-230.4v-256h256v25.6h-230.4v204.8h204.8v-128h-51.2v76.8h-102.4v-102.4h179.2v179.2h-25.6zM486.4 409.6v51.2h51.2v-51.2h-51.2z" />
<glyph unicode="&#xe90f;" glyph-name="html" d="M358.4 307.2h307.2v-25.6h-307.2v25.6zM358.4 358.4h25.6v-25.6h-25.6v25.6zM640 358.4h25.6v-25.6h-25.6v25.6zM358.4 409.6h25.6v-25.6h-25.6v25.6zM640 409.6h25.6v-25.6h-25.6v25.6zM358.4 512h25.6v-25.6h-25.6v25.6zM640 512h25.6v-25.6h-25.6v25.6zM358.4 460.8h25.6v-25.6h-25.6v25.6zM640 460.8h25.6v-25.6h-25.6v25.6zM640 588.8h-256v-25.6h-25.6v-51.2h307.2v51.2h-25.6v25.6zM435.2 537.6h-25.6v25.6h25.6v-25.6zM486.4 537.6h-25.6v25.6h25.6v-25.6zM537.6 537.6h-25.6v25.6h25.6v-25.6z" />
<glyph unicode="&#xe910;" glyph-name="body" d="M358.4 307.2h307.2v-25.6h-307.2v25.6zM358.4 358.4h25.6v-25.6h-25.6v25.6zM640 358.4h25.6v-25.6h-25.6v25.6zM358.4 409.6h25.6v-25.6h-25.6v25.6zM640 409.6h25.6v-25.6h-25.6v25.6zM358.4 512h25.6v-25.6h-25.6v25.6zM640 512h25.6v-25.6h-25.6v25.6zM358.4 460.8h25.6v-25.6h-25.6v25.6zM640 460.8h25.6v-25.6h-25.6v25.6zM640 588.8h-256v-25.6h-25.6v-51.2h307.2v51.2h-25.6v25.6zM435.2 537.6h-25.6v25.6h25.6v-25.6zM486.4 537.6h-25.6v25.6h25.6v-25.6zM537.6 537.6h-25.6v25.6h25.6v-25.6z" />
<glyph unicode="&#xe911;" glyph-name="div" d="M358.4 384h25.6v-102.4h-25.6v102.4zM358.4 307.2h102.4v-25.6h-102.4v25.6zM563.2 307.2h102.4v-25.6h-102.4v25.6zM640 384h25.6v-102.4h-25.6v102.4zM640 588.8h25.6v-102.4h-25.6v102.4zM563.2 588.8h102.4v-25.6h-102.4v25.6zM358.4 588.8h102.4v-25.6h-102.4v25.6zM358.4 588.8h25.6v-102.4h-25.6v102.4z" />
<glyph unicode="&#xe912;" glyph-name="footer" d="M665.6 563.2h-307.2v25.6h307.2v-25.6zM665.6 281.6v102.4h-307.2v-102.4h307.2zM384 358.4h128v-51.2h-128v51.2zM665.6 512h-25.6v25.6h25.6v-25.6zM384 512h-25.6v25.6h25.6v-25.6zM665.6 460.8h-25.6v25.6h25.6v-25.6zM384 460.8h-25.6v25.6h25.6v-25.6zM665.6 409.6h-25.6v25.6h25.6v-25.6zM384 409.6h-25.6v25.6h25.6v-25.6z" />
<glyph unicode="&#xe913;" glyph-name="header" d="M358.4 307.2h307.2v-25.6h-307.2v25.6zM358.4 588.8v-102.4h307.2v102.4h-307.2zM512 512h-128v51.2h128v-51.2zM358.4 358.4h25.6v-25.6h-25.6v25.6zM640 358.4h25.6v-25.6h-25.6v25.6zM358.4 409.6h25.6v-25.6h-25.6v25.6zM640 409.6h25.6v-25.6h-25.6v25.6zM358.4 460.8h25.6v-25.6h-25.6v25.6zM640 460.8h25.6v-25.6h-25.6v25.6z" />
<glyph unicode="&#xe914;" glyph-name="history" d="M693.018 254.182c99.968 99.968 99.968 262.067 0 362.035s-262.067 99.968-362.035 0-99.968-262.067 0-362.035 262.067-99.968 362.035 0zM385.28 561.92c69.99 69.99 183.45 69.99 253.414 0s69.99-183.45 0-253.414-183.45-69.99-253.414 0-69.965 183.424 0 253.414zM603.469 379.93l-65.869 65.869v93.133c0 13.414-11.469 24.269-25.6 24.269s-25.6-10.854-25.6-24.243v-102.195c-0.307-3.942 0.256-7.782 1.818-11.392 1.459-3.661 3.789-6.784 6.784-9.344l72.269-72.269c9.472-9.472 25.267-9.037 35.251 0.947s10.419 25.754 0.947 35.226z" />
<glyph unicode="&#xe915;" glyph-name="tree" d="M486.4 563.2h153.6v-51.2h-153.6v51.2zM384 563.2h51.2v-51.2h-51.2v51.2zM537.6 460.8h102.4v-51.2h-102.4v51.2zM435.2 460.8h51.2v-51.2h-51.2v51.2zM486.4 358.4h153.6v-51.2h-153.6v51.2zM384 358.4h51.2v-51.2h-51.2v51.2z" />
<glyph unicode="&#xe916;" glyph-name="project" d="M307.2 422.4c113.203-136.525 296.397-136.525 409.6 0-113.203 136.525-296.397 136.525-409.6 0zM512 371.2c-28.288 0-51.2 22.912-51.2 51.2s22.912 51.2 51.2 51.2 51.2-22.912 51.2-51.2c0-28.288-22.912-51.2-51.2-51.2z" />
<glyph unicode="&#xe917;" glyph-name="inspector-laydown" d="M614.4 588.8h-256v-307.2h307.2v307.2h-51.2zM614.4 332.8h-204.8v102.4h204.8v-102.4z" />
<glyph unicode="&#xe918;" glyph-name="wisi" d="M358.4 563.2h51.2v-51.2h-51.2v51.2zM460.8 563.2h204.8v-51.2h-204.8v51.2zM614.4 460.8h51.2v-51.2h-51.2v51.2zM358.4 460.8h204.8v-51.2h-204.8v51.2zM358.4 358.4h51.2v-51.2h-51.2v51.2zM460.8 358.4h204.8v-51.2h-204.8v51.2z" />
<glyph unicode="&#xe919;" glyph-name="align-justify" d="M358.4 563.2h307.2v-25.6h-307.2v25.6zM358.4 486.4h307.2v-25.6h-307.2v25.6zM358.4 409.6h307.2v-25.6h-307.2v25.6zM358.4 332.8h204.8v-25.6h-204.8v25.6z" />
<glyph unicode="&#xe91a;" glyph-name="align-center" d="M358.4 563.2h307.2v-25.6h-307.2v25.6zM409.6 486.4h204.8v-25.6h-204.8v25.6zM358.4 409.6h307.2v-25.6h-307.2v25.6zM409.6 332.8h204.8v-25.6h-204.8v25.6z" />
<glyph unicode="&#xe91b;" glyph-name="align-right" d="M358.4 563.2h307.2v-25.6h-307.2v25.6zM460.8 486.4h204.8v-25.6h-204.8v25.6zM358.4 409.6h307.2v-25.6h-307.2v25.6zM460.8 332.8h204.8v-25.6h-204.8v25.6z" />
<glyph unicode="&#xe91c;" glyph-name="align-left" d="M358.4 563.2h307.2v-25.6h-307.2v25.6zM358.4 486.4h204.8v-25.6h-204.8v25.6zM358.4 409.6h307.2v-25.6h-307.2v25.6zM358.4 332.8h204.8v-25.6h-204.8v25.6z" />
<glyph unicode="&#xe91d;" glyph-name="insp-retach" d="M435.2 537.6h51.2v-51.2h-51.2v51.2zM435.2 460.8h51.2v-51.2h-51.2v51.2zM435.2 384h51.2v-51.2h-51.2v51.2zM435.2 307.2h51.2v-51.2h-51.2v51.2zM512 307.2h51.2v-51.2h-51.2v51.2zM588.8 307.2h51.2v-51.2h-51.2v51.2zM588.8 384h51.2v-51.2h-51.2v51.2zM588.8 460.8h51.2v-51.2h-51.2v51.2zM512 537.6h51.2v-51.2h-51.2v51.2zM588.8 537.6h51.2v-51.2h-51.2v51.2zM358.4 614.4h204.8v-51.2h-204.8v51.2zM358.4 563.2h51.2v-179.2h-51.2v179.2z" />
<glyph unicode="&#xe91e;" glyph-name="lens" d="M680.090 308.608l-58.138 58.138c34.637 58.88 27.238 135.68-23.322 186.24-30.003 30.003-69.299 44.979-108.621 44.979s-78.618-15.002-108.621-44.979c-59.981-59.981-59.981-157.235 0-217.216 30.003-30.003 69.299-44.979 108.621-44.979 26.957 0 53.683 7.578 77.619 21.683l58.138-58.138c10.010-10.010 26.214-10.010 36.198 0l18.099 18.099c10.010 9.984 10.010 26.189 0.026 36.173zM562.432 371.968c-9.472-9.472-20.48-16.768-32.461-21.862-12.493-5.299-25.984-8.141-39.962-8.141-27.341 0-53.069 10.65-72.397 30.003-39.936 39.936-39.936 104.883 0 144.819 19.354 19.328 45.056 30.003 72.397 30.003s53.069-10.65 72.397-30.003c30.31-30.31 37.478-75.008 21.76-112.282-4.966-11.802-12.134-22.912-21.734-32.538z" />
<glyph unicode="&#xe91f;" glyph-name="cross" d="M548.198 422.4l72.397 72.397c10.010 10.010 10.010 26.214 0 36.198-10.010 10.010-26.214 10.010-36.198 0l-72.397-72.397-72.397 72.397c-10.010 10.010-26.214 10.010-36.198 0-10.010-10.010-10.010-26.214 0-36.198l72.397-72.397-72.397-72.397c-10.010-10.010-10.010-26.214 0-36.198 10.010-10.010 26.214-10.010 36.198 0l72.397 72.397 72.397-72.397c10.010-10.010 26.214-10.010 36.198 0 10.010 10.010 10.010 26.214 0 36.198l-72.397 72.397z" />
<glyph unicode="&#xe920;" glyph-name="bg-repeat-y" d="M537.6 588.8v-51.2h-51.2v51.2h51.2zM563.2 614.4h-102.4v-102.4h102.4v102.4zM537.6 460.8v-51.2h-51.2v51.2h51.2zM563.2 486.4h-102.4v-102.4h102.4v102.4zM537.6 332.8v-51.2h-51.2v51.2h51.2zM563.2 358.4h-102.4v-102.4h102.4v102.4z" />
<glyph unicode="&#xe921;" glyph-name="bg-repeat-x" d="M665.6 409.6h-51.2v51.2h51.2v-51.2zM691.2 384v102.4h-102.4v-102.4h102.4zM537.6 409.6h-51.2v51.2h51.2v-51.2zM563.2 384v102.4h-102.4v-102.4h102.4zM409.6 409.6h-51.2v51.2h51.2v-51.2zM435.2 384v102.4h-102.4v-102.4h102.4z" />
<glyph unicode="&#xe922;" glyph-name="bg-repeat" d="M409.6 588.8v-51.2h-51.2v51.2h51.2zM435.2 614.4h-102.4v-102.4h102.4v102.4zM409.6 460.8v-51.2h-51.2v51.2h51.2zM435.2 486.4h-102.4v-102.4h102.4v102.4zM409.6 332.8v-51.2h-51.2v51.2h51.2zM435.2 358.4h-102.4v-102.4h102.4v102.4zM537.6 588.8v-51.2h-51.2v51.2h51.2zM563.2 614.4h-102.4v-102.4h102.4v102.4zM537.6 460.8v-51.2h-51.2v51.2h51.2zM563.2 486.4h-102.4v-102.4h102.4v102.4zM537.6 332.8v-51.2h-51.2v51.2h51.2zM563.2 358.4h-102.4v-102.4h102.4v102.4zM665.6 588.8v-51.2h-51.2v51.2h51.2zM691.2 614.4h-102.4v-102.4h102.4v102.4zM665.6 460.8v-51.2h-51.2v51.2h51.2zM691.2 486.4h-102.4v-102.4h102.4v102.4zM665.6 332.8v-51.2h-51.2v51.2h51.2zM691.2 358.4h-102.4v-102.4h102.4v102.4z" />
<glyph unicode="&#xe923;" glyph-name="cog" d="M665.6 409.6v51.2h-28.186c-3.328 16.333-9.805 31.488-18.714 44.902l19.994 19.994-36.198 36.198-19.994-19.994c-13.414 8.909-28.57 15.411-44.902 18.714v28.186h-51.2v-28.186c-16.333-3.328-31.488-9.805-44.902-18.714l-19.994 19.994-36.198-36.198 19.994-19.994c-8.909-13.414-15.411-28.57-18.714-44.902h-28.186v-51.2h28.186c3.328-16.333 9.805-31.488 18.714-44.902l-19.994-19.994 36.198-36.198 19.994 19.994c13.44-8.883 28.57-15.386 44.902-18.714v-28.186h51.2v28.186c16.333 3.328 31.488 9.805 44.902 18.714l19.994-19.994 36.198 36.198-19.994 19.994c8.883 13.44 15.386 28.57 18.714 44.902h28.186zM563.2 435.2c0-4.557-0.794-8.883-1.894-13.082-1.178-4.454-2.944-8.627-5.197-12.518-4.48-7.68-10.829-14.029-18.509-18.509-3.891-2.253-8.064-4.019-12.518-5.197-4.198-1.101-8.525-1.894-13.082-1.894s-8.883 0.794-13.082 1.894c-4.454 1.178-8.627 2.944-12.518 5.197-7.68 4.48-14.029 10.829-18.509 18.509-2.253 3.891-4.019 8.064-5.197 12.518-1.101 4.198-1.894 8.525-1.894 13.082s0.794 8.883 1.894 13.082c1.178 4.454 2.944 8.627 5.197 12.518 4.48 7.68 10.803 14.029 18.509 18.509 3.891 2.253 8.064 4.019 12.518 5.197 4.198 1.101 8.525 1.894 13.082 1.894s8.883-0.794 13.082-1.894c4.454-1.178 8.627-2.944 12.518-5.197 7.68-4.48 14.029-10.829 18.509-18.509 2.253-3.891 4.019-8.064 5.197-12.518 1.101-4.198 1.894-8.525 1.894-13.082z" />
<glyph unicode="&#xe924;" glyph-name="export" d="M588.8 332.8h-153.6v204.8h204.8v51.2h-256v-307.2h256v51.2h-51.2zM640 512v-51.2h-153.6v-51.2h153.6v-51.2l76.8 76.8z" />
<glyph unicode="&#xe925;" glyph-name="linksc" d="M512 384h25.6v-25.6h-25.6v25.6zM460.8 358.4v-25.6h51.2v25.6h-25.6zM435.2 384h25.6v-25.6h-25.6v25.6zM435.2 435.2h-25.6v-51.2h25.6v25.6zM435.2 460.8h25.6v-25.6h-25.6v25.6zM486.4 512h25.6v-25.6h-25.6v25.6zM537.6 537.6h-25.6v-25.6h51.2v25.6zM563.2 512h25.6v-25.6h-25.6v25.6zM588.8 486.4v-51.2h25.6v51.2zM563.2 435.2h25.6v-25.6h-25.6v25.6zM512 460.8h25.6v-25.6h-25.6v25.6zM486.4 435.2h25.6v-25.6h-25.6v25.6z" />
<glyph unicode="&#xe926;" glyph-name="icon-plus" d="M384 448h256v-51.2h-256v51.2zM486.4 550.4h51.2v-256h-51.2v256z" />
<glyph unicode="&#xe927;" glyph-name="bg-cover" d="M563.2 435.2h76.8v-51.2h25.6v25.6h25.6v25.6h25.6v25.6h-25.6v25.6h-25.6v25.6h-25.6v-51.2h-102.4v-25.6zM460.8 460.8h-76.8v51.2h-25.6v-25.6h-25.6v-25.6h-25.6v-25.6h25.6v-25.6h25.6v-25.6h25.6v51.2h102.4v25.6z" />
<glyph unicode="&#xe928;" glyph-name="bg-contain" d="M486.4 409.6v-76.8h-51.2v-25.6h25.6v-25.6h25.6v-25.6h25.6v25.6h25.6v25.6h25.6v25.6h-51.2v102.4h-25.6zM512 512v76.8h51.2v25.6h-25.6v25.6h-25.6v25.6h-25.6v-25.6h-25.6v-25.6h-25.6v-25.6h51.2v-102.4h25.6z" />
<glyph unicode="&#xe929;" glyph-name="bg-100-100" d="M435.2 307.2h25.6v25.6h-25.6v25.6h-25.6v25.6h-25.6v-76.8h25.6zM435.2 384h25.6v-25.6h-25.6v25.6zM460.8 409.6h25.6v-25.6h-25.6v25.6zM563.2 332.8v-25.6h76.8v76.8h-25.6v-25.6h-25.6v-25.6zM563.2 384h25.6v-25.6h-25.6v25.6zM537.6 409.6h25.6v-25.6h-25.6v25.6zM614.4 486.4h25.6v76.8h-76.8v-25.6h25.6v-25.6h25.6zM563.2 512h25.6v-25.6h-25.6v25.6zM537.6 486.4h25.6v-25.6h-25.6v25.6zM409.6 512h25.6v25.6h25.6v25.6h-76.8v-76.8h25.6zM435.2 512h25.6v-25.6h-25.6v25.6zM460.8 486.4h25.6v-25.6h-25.6v25.6z" />
<glyph unicode="&#xe92a;" glyph-name="bg-auto" d="M435.2 409.6h-25.6v-25.6h25.6v-25.6h25.6v-25.6h25.6v76.8h-25.6zM409.6 358.4h25.6v-25.6h-25.6v25.6zM384 332.8h25.6v-25.6h-25.6v25.6zM614.4 384v25.6h-76.8v-76.8h25.6v25.6h25.6v25.6zM588.8 358.4h25.6v-25.6h-25.6v25.6zM614.4 332.8h25.6v-25.6h-25.6v25.6zM563.2 537.6h-25.6v-76.8h76.8v25.6h-25.6v25.6h-25.6zM588.8 537.6h25.6v-25.6h-25.6v25.6zM614.4 563.2h25.6v-25.6h-25.6v25.6zM460.8 512h-25.6v-25.6h-25.6v-25.6h76.8v76.8h-25.6zM409.6 537.6h25.6v-25.6h-25.6v25.6zM384 563.2h25.6v-25.6h-25.6v25.6z" />
<glyph unicode="&#xe92b;" glyph-name="nav-mode" d="M640 384h-25.6v25.6h-25.6v25.6h-25.6v25.6h-25.6v25.6h-25.6v-204.8h25.6v25.6h25.6v25.6h102.4v25.6h-25.6zM640 588.8h-51.2v-25.6h-153.6v25.6h-76.8v-76.8h25.6v-128h-25.6v-76.8h76.8v25.6h51.2v25.6h-51.2v25.6h-25.6v128h25.6v25.6h153.6v-25.6h25.6v-76.8h25.6v76.8h25.6v76.8h-25.6zM409.6 332.8h-25.6v25.6h25.6v-25.6zM384 537.6v25.6h25.6v-25.6h-25.6zM640 537.6h-25.6v25.6h25.6v-25.6z" />
<glyph unicode="&#xe92c;" glyph-name="ico-desc" d="M691.2 358.4v256h-358.4v-256h102.4v-51.2h-51.2v-25.6h256v25.6h-51.2v51.2h102.4zM384 409.6v153.6h256v-153.6h-256z" />
<glyph unicode="&#xe92d;" glyph-name="ico-imp" d="M537.6 396.8c0-14.131-11.469-25.6-25.6-25.6v0c-14.131 0-25.6 11.469-25.6 25.6v153.6c0 14.131 11.469 25.6 25.6 25.6v0c14.131 0 25.6-11.469 25.6-25.6v-153.6zM537.6 294.4c0-14.131-11.469-25.6-25.6-25.6v0c-14.131 0-25.6 11.469-25.6 25.6v0c0 14.131 11.469 25.6 25.6 25.6v0c14.131 0 25.6-11.469 25.6-25.6v0z" />
<glyph unicode="&#xe92e;" glyph-name="ico-file" d="M537.6 486.4h-25.6v76.8h-102.4v-230.4h179.2v153.6h-25.6zM537.6 563.2v-25.6h25.6v-25.6h25.6v51.2z" />
<glyph unicode="&#xe92f;" glyph-name="arrow" d="M539.264 332.8v204.8l131.635-102.4-131.635-102.4zM353.101 466.227h186.163v-62.054h-186.163v62.054z" />
<glyph unicode="&#xe930;" glyph-name="maximize" d="M384 384h-25.6v-102.4h102.4v25.6h-51.2v25.6h-25.6v51.2zM409.6 358.4h25.6v-25.6h-25.6v25.6zM435.2 384h25.6v-25.6h-25.6v25.6zM563.2 307.2v-25.6h102.4v102.4h-25.6v-51.2h-25.6v-25.6h-51.2zM588.8 358.4h25.6v-25.6h-25.6v25.6zM563.2 384h25.6v-25.6h-25.6v25.6zM640 486.4h25.6v102.4h-102.4v-25.6h51.2v-25.6h25.6v-51.2zM588.8 537.6h25.6v-25.6h-25.6v25.6zM563.2 512h25.6v-25.6h-25.6v25.6zM460.8 563.2v25.6h-102.4v-102.4h25.6v51.2h25.6v25.6h51.2zM409.6 537.6h25.6v-25.6h-25.6v25.6zM435.2 512h25.6v-25.6h-25.6v25.6z" />
<glyph unicode="&#xe931;" glyph-name="border-dashed" d="M307.2 460.8h102.4v-51.2h-102.4v51.2zM460.8 460.8h102.4v-51.2h-102.4v51.2zM614.4 460.8h102.4v-51.2h-102.4v51.2z" />
<glyph unicode="&#xe932;" glyph-name="border-dotted" d="M332.8 460.8h51.2v-51.2h-51.2v51.2zM435.2 460.8h51.2v-51.2h-51.2v51.2zM537.6 460.8h51.2v-51.2h-51.2v51.2zM640 460.8h51.2v-51.2h-51.2v51.2z" />
<glyph unicode="&#xe933;" glyph-name="border-solid" d="M332.8 460.8h358.4v-51.2h-358.4v51.2z" />
<glyph unicode="&#xe934;" glyph-name="hero-edit" d="M426.726 282.803l-63.36-9.037 9.037 63.36 144.819 144.819 54.323-54.323zM606.337 571.044l54.305-54.305-54.305-54.305-54.305 54.305 54.305 54.305z" />
<glyph unicode="&#xe935;" glyph-name="icon-li" d="M409.6 537.6h25.6v-25.6h-25.6v25.6zM409.6 512h25.6v-25.6h-25.6v25.6zM409.6 486.4h25.6v-25.6h-25.6v25.6zM435.2 486.4h25.6v-25.6h-25.6v25.6zM460.8 486.4h25.6v-25.6h-25.6v25.6zM460.8 512h25.6v-25.6h-25.6v25.6zM460.8 537.6h25.6v-25.6h-25.6v25.6zM435.2 537.6h25.6v-25.6h-25.6v25.6zM512 512h25.6v-25.6h-25.6v25.6zM537.6 512h25.6v-25.6h-25.6v25.6zM563.2 512h25.6v-25.6h-25.6v25.6zM588.8 512h25.6v-25.6h-25.6v25.6zM409.6 409.6h25.6v-25.6h-25.6v25.6zM409.6 384h25.6v-25.6h-25.6v25.6zM409.6 358.4h25.6v-25.6h-25.6v25.6zM435.2 358.4h25.6v-25.6h-25.6v25.6zM460.8 358.4h25.6v-25.6h-25.6v25.6zM460.8 384h25.6v-25.6h-25.6v25.6zM460.8 409.6h25.6v-25.6h-25.6v25.6zM435.2 409.6h25.6v-25.6h-25.6v25.6zM512 384h25.6v-25.6h-25.6v25.6zM537.6 384h25.6v-25.6h-25.6v25.6zM563.2 384h25.6v-25.6h-25.6v25.6zM588.8 384h25.6v-25.6h-25.6v25.6z" />
<glyph unicode="&#xe936;" glyph-name="icon-ul" d="M409.6 537.6h25.6v-25.6h-25.6v25.6zM409.6 512h25.6v-25.6h-25.6v25.6zM409.6 486.4h25.6v-25.6h-25.6v25.6zM435.2 486.4h25.6v-25.6h-25.6v25.6zM460.8 486.4h25.6v-25.6h-25.6v25.6zM460.8 512h25.6v-25.6h-25.6v25.6zM460.8 537.6h25.6v-25.6h-25.6v25.6zM435.2 537.6h25.6v-25.6h-25.6v25.6zM512 512h25.6v-25.6h-25.6v25.6zM537.6 512h25.6v-25.6h-25.6v25.6zM563.2 512h25.6v-25.6h-25.6v25.6zM588.8 512h25.6v-25.6h-25.6v25.6zM409.6 409.6h25.6v-25.6h-25.6v25.6zM409.6 384h25.6v-25.6h-25.6v25.6zM409.6 358.4h25.6v-25.6h-25.6v25.6zM435.2 358.4h25.6v-25.6h-25.6v25.6zM460.8 358.4h25.6v-25.6h-25.6v25.6zM460.8 384h25.6v-25.6h-25.6v25.6zM460.8 409.6h25.6v-25.6h-25.6v25.6zM435.2 409.6h25.6v-25.6h-25.6v25.6zM512 384h25.6v-25.6h-25.6v25.6zM537.6 384h25.6v-25.6h-25.6v25.6zM563.2 384h25.6v-25.6h-25.6v25.6zM588.8 384h25.6v-25.6h-25.6v25.6zM384 588.8h281.6v-25.6h-281.6v25.6zM384 307.2h281.6v-25.6h-281.6v25.6zM358.4 588.8h25.6v-307.2h-25.6v307.2zM640 588.8h25.6v-307.2h-25.6v307.2z" />
<glyph unicode="&#xe937;" glyph-name="icon-paragraph" d="M358.4 563.2h307.2v-25.6h-307.2v25.6zM358.4 486.4h204.8v-25.6h-204.8v25.6zM358.4 409.6h307.2v-25.6h-307.2v25.6zM358.4 332.8h204.8v-25.6h-204.8v25.6z" />
<glyph unicode="&#xe938;" glyph-name="icon-heading" d="M563.2 563.2h25.6v-230.4h-25.6v230.4zM460.8 460.8h25.6v-25.6h-25.6v25.6zM486.4 460.8h25.6v-25.6h-25.6v25.6zM512 460.8h25.6v-25.6h-25.6v25.6zM537.6 460.8h25.6v-25.6h-25.6v25.6zM537.6 563.2h25.6v-25.6h-25.6v25.6zM588.8 563.2h25.6v-25.6h-25.6v25.6zM537.6 358.4h76.8v-25.6h-76.8v25.6zM435.2 563.2h25.6v-230.4h-25.6v230.4zM409.6 563.2h25.6v-25.6h-25.6v25.6zM460.8 563.2h25.6v-25.6h-25.6v25.6zM409.6 358.4h76.8v-25.6h-76.8v25.6z" />
<glyph unicode="&#xe939;" glyph-name="icon-link" d="M384 563.2h25.6v-256h-25.6v256zM588.8 537.6h25.6v-25.6h-25.6v25.6zM563.2 512h25.6v-25.6h-25.6v25.6zM537.6 486.4h25.6v-25.6h-25.6v25.6zM512 460.8h25.6v-25.6h-25.6v25.6zM486.4 435.2h25.6v-25.6h-25.6v25.6zM614.4 384h25.6v-25.6h-25.6v25.6zM614.4 358.4h25.6v-25.6h-25.6v25.6zM409.6 563.2h25.6v-25.6h-25.6v25.6zM435.2 563.2h25.6v-25.6h-25.6v25.6zM614.4 563.2h25.6v-128h-25.6v128zM512 563.2h128v-25.6h-128v25.6zM384 332.8h256v-25.6h-256v25.6z" />
<glyph unicode="&#xe93a;" glyph-name="icon-section" d="M614.4 307.2h25.6v-25.6h-25.6v25.6zM563.2 307.2h25.6v-25.6h-25.6v25.6zM512 307.2h25.6v-25.6h-25.6v25.6zM460.8 307.2h25.6v-25.6h-25.6v25.6zM409.6 307.2h25.6v-25.6h-25.6v25.6zM665.6 307.2h25.6v-25.6h-25.6v25.6zM665.6 358.4h25.6v-25.6h-25.6v25.6zM665.6 409.6h25.6v-25.6h-25.6v25.6zM358.4 307.2h25.6v-25.6h-25.6v25.6zM358.4 358.4h25.6v-25.6h-25.6v25.6zM358.4 409.6h25.6v-25.6h-25.6v25.6zM409.6 588.8h25.6v-25.6h-25.6v25.6zM460.8 588.8h25.6v-25.6h-25.6v25.6zM512 588.8h25.6v-25.6h-25.6v25.6zM563.2 588.8h25.6v-25.6h-25.6v25.6zM614.4 588.8h25.6v-25.6h-25.6v25.6zM358.4 588.8h25.6v-25.6h-25.6v25.6zM358.4 537.6h25.6v-25.6h-25.6v25.6zM358.4 486.4h25.6v-25.6h-25.6v25.6zM665.6 588.8h25.6v-25.6h-25.6v25.6zM665.6 537.6h25.6v-25.6h-25.6v25.6zM665.6 486.4h25.6v-25.6h-25.6v25.6zM358.4 460.8h25.6v-51.2h-25.6v51.2zM665.6 460.8h25.6v-51.2h-25.6v51.2zM358.4 486.4h332.8v-25.6h-332.8v25.6zM358.4 409.6h332.8v-25.6h-332.8v25.6z" />
<glyph unicode="&#xe93b;" glyph-name="icon-article" d="M358.4 588.8h230.4v-76.8h-230.4v76.8zM358.4 307.2h179.2v-25.6h-179.2v25.6zM358.4 358.4h307.2v-25.6h-307.2v25.6zM358.4 409.6h307.2v-25.6h-307.2v25.6zM358.4 460.8h307.2v-25.6h-307.2v25.6z" />
<glyph unicode="&#xe93c;" glyph-name="icon-hr" d="M358.4 460.8h25.6v-76.8h-25.6v76.8zM640 460.8h25.6v-76.8h-25.6v76.8zM358.4 435.2h307.2v-25.6h-307.2v25.6z" />
<glyph unicode="&#xe93d;" glyph-name="arre" d="M384 563.2h25.6v-256h-25.6v256zM332.8 512h25.6v-153.6h-25.6v153.6zM281.6 460.8h25.6v-51.2h-25.6v51.2zM614.4 563.2h25.6v-256h-25.6v256zM665.6 512h25.6v-153.6h-25.6v153.6zM716.8 460.8h25.6v-51.2h-25.6v51.2z" />
<glyph unicode="&#xe93e;" glyph-name="ico-padding" d="M281.6 614.4h409.6v-25.6h-409.6v25.6zM281.6 307.2h409.6v-25.6h-409.6v25.6zM332.8 358.4h25.6v-25.6h-25.6v25.6zM384 358.4h25.6v-25.6h-25.6v25.6zM435.2 358.4h25.6v-25.6h-25.6v25.6zM435.2 409.6h25.6v-25.6h-25.6v25.6zM384 409.6h25.6v-25.6h-25.6v25.6zM332.8 409.6h25.6v-25.6h-25.6v25.6zM332.8 460.8h25.6v-25.6h-25.6v25.6zM384 460.8h25.6v-25.6h-25.6v25.6zM435.2 460.8h25.6v-25.6h-25.6v25.6zM435.2 512h25.6v-25.6h-25.6v25.6zM384 512h25.6v-25.6h-25.6v25.6zM332.8 512h25.6v-25.6h-25.6v25.6zM332.8 563.2h25.6v-25.6h-25.6v25.6zM384 563.2h25.6v-25.6h-25.6v25.6zM435.2 563.2h25.6v-25.6h-25.6v25.6zM691.2 614.4h25.6v-332.8h-25.6v332.8zM281.6 614.4h25.6v-332.8h-25.6v332.8z" />
<glyph unicode="&#xe93f;" glyph-name="ico-margin" d="M435.2 614.4h256v-25.6h-256v25.6zM435.2 307.2h256v-25.6h-256v25.6zM281.6 358.4h25.6v-25.6h-25.6v25.6zM332.8 358.4h25.6v-25.6h-25.6v25.6zM384 358.4h25.6v-25.6h-25.6v25.6zM281.6 307.2h25.6v-25.6h-25.6v25.6zM332.8 307.2h25.6v-25.6h-25.6v25.6zM384 307.2h25.6v-25.6h-25.6v25.6zM281.6 614.4h25.6v-25.6h-25.6v25.6zM332.8 614.4h25.6v-25.6h-25.6v25.6zM384 614.4h25.6v-25.6h-25.6v25.6zM384 409.6h25.6v-25.6h-25.6v25.6zM332.8 409.6h25.6v-25.6h-25.6v25.6zM281.6 409.6h25.6v-25.6h-25.6v25.6zM281.6 460.8h25.6v-25.6h-25.6v25.6zM332.8 460.8h25.6v-25.6h-25.6v25.6zM384 460.8h25.6v-25.6h-25.6v25.6zM384 512h25.6v-25.6h-25.6v25.6zM332.8 512h25.6v-25.6h-25.6v25.6zM281.6 512h25.6v-25.6h-25.6v25.6zM281.6 563.2h25.6v-25.6h-25.6v25.6zM332.8 563.2h25.6v-25.6h-25.6v25.6zM384 563.2h25.6v-25.6h-25.6v25.6zM691.2 614.4h25.6v-332.8h-25.6v332.8zM435.2 614.4h25.6v-332.8h-25.6v332.8z" />
<glyph unicode="&#xe940;" glyph-name="ico-measures" d="M384 563.2h25.6v-281.6h-25.6v281.6zM614.4 588.8h25.6v-281.6h-25.6v281.6zM537.6 588.8h25.6v-179.2h-25.6v179.2zM409.6 537.6h25.6v-25.6h-25.6v25.6zM435.2 512h25.6v-25.6h-25.6v25.6zM460.8 486.4h25.6v-25.6h-25.6v25.6zM486.4 460.8h25.6v-25.6h-25.6v25.6zM460.8 409.6h25.6v-25.6h-25.6v25.6zM486.4 384h25.6v-25.6h-25.6v25.6zM588.8 409.6h25.6v-25.6h-25.6v25.6zM588.8 460.8h25.6v-25.6h-25.6v25.6zM588.8 512h25.6v-25.6h-25.6v25.6zM588.8 563.2h25.6v-25.6h-25.6v25.6zM512 435.2h25.6v-25.6h-25.6v25.6zM537.6 409.6h25.6v-25.6h-25.6v25.6zM563.2 384h25.6v-25.6h-25.6v25.6zM588.8 358.4h25.6v-25.6h-25.6v25.6zM614.4 332.8h25.6v-25.6h-25.6v25.6zM409.6 307.2h230.4v-25.6h-230.4v25.6zM435.2 435.2h25.6v-102.4h-25.6v102.4zM435.2 358.4h102.4v-25.6h-102.4v25.6zM537.6 588.8h102.4v-25.6h-102.4v25.6zM537.6 588.8h76.8v-25.6h-76.8v25.6z" />
<glyph unicode="&#xe941;" glyph-name="ico-borders" d="M281.6 614.4h51.2v-25.6h-51.2v25.6zM281.6 537.6h25.6v-51.2h-25.6v51.2zM281.6 435.2h25.6v-51.2h-25.6v51.2zM281.6 332.8h25.6v-51.2h-25.6v51.2zM691.2 409.6h25.6v-51.2h-25.6v51.2zM691.2 512h25.6v-51.2h-25.6v51.2zM691.2 614.4h25.6v-51.2h-25.6v51.2zM384 614.4h51.2v-25.6h-51.2v25.6zM486.4 614.4h51.2v-25.6h-51.2v25.6zM588.8 614.4h51.2v-25.6h-51.2v25.6zM665.6 307.2h51.2v-25.6h-51.2v25.6zM563.2 307.2h51.2v-25.6h-51.2v25.6zM460.8 307.2h51.2v-25.6h-51.2v25.6zM358.4 307.2h51.2v-25.6h-51.2v25.6z" />
<glyph unicode="&#xe942;" glyph-name="ico-trash" d="M563.2 409.6v-51.2h-102.4v102.4h-51.2v-153.6h204.8v153.6h-51.2zM588.8 537.6h-25.6v51.2h-102.4v-51.2h-76.8v-51.2h256v51.2z" />
<glyph unicode="&#xe943;" glyph-name="dots" d="M563.2 422.4c0-28.277-22.923-51.2-51.2-51.2s-51.2 22.923-51.2 51.2c0 28.277 22.923 51.2 51.2 51.2s51.2-22.923 51.2-51.2zM409.6 422.4c0-28.277-22.923-51.2-51.2-51.2s-51.2 22.923-51.2 51.2c0 28.277 22.923 51.2 51.2 51.2s51.2-22.923 51.2-51.2zM716.8 422.4c0-28.277-22.923-51.2-51.2-51.2s-51.2 22.923-51.2 51.2c0 28.277 22.923 51.2 51.2 51.2s51.2-22.923 51.2-51.2z" />
<glyph unicode="&#xe944;" glyph-name="ico-back" d="M693.018 616.218c-99.968 99.968-262.067 99.968-362.035 0l-63.36 63.36v-181.018h181.018l-63.36 63.36c69.99 69.99 183.45 69.99 253.44 0s69.99-183.45 0-253.44-183.45-69.99-253.44 0l-54.298-54.298c99.968-99.968 262.067-99.968 362.035 0s99.968 262.067 0 362.035z" />
<glyph unicode="&#xe945;" glyph-name="ico-fonts" d="M264.499 295.296c7.603 2.278 13.21 4.736 16.794 7.398 5.325 3.866 11.264 11.085 17.792 21.606l152.013 240.819h10.598l39.194-234.214c2.662-15.718 5.862-25.37 9.6-28.902s11.904-5.786 24.576-6.707v-9.805h-124.186v9.805c11.725 0.922 20.019 2.816 24.909 5.709 4.864 2.867 7.296 8.832 7.296 17.894 0 3.072-0.742 10.394-2.202 21.99-0.256 2.406-1.587 12.339-3.968 29.824h-88.346l-23.885-41.6c-1.587-2.79-3.046-5.862-4.301-9.19-1.28-3.328-1.894-6.528-1.894-9.6 0-5.606 1.69-9.19 5.094-10.803s10.496-2.995 21.299-4.198v-9.805h-80.41v9.779zM434.022 386.918l-15.078 99.738-60.595-99.738h75.674zM596.506 367.667c17.715 10.803 45.517 21.709 83.405 32.64v29.798c0 12.134-2.586 21.094-7.706 26.906s-14.234 8.704-27.29 8.704c-7.322 0-13.363-1.382-18.099-4.096-4.736-2.739-7.091-6.17-7.091-10.291 0-1.587 0.282-2.944 0.794-3.994 0.538-1.075 1.331-2.202 2.406-3.405l2.406-2.79c1.869-2.278 3.379-4.787 4.506-7.501 1.126-2.739 1.69-5.632 1.69-8.704 0-7.731-2.586-13.696-7.706-17.894s-11.11-6.298-17.894-6.298c-7.885 0-14.566 2.33-20.096 6.963-5.53 4.659-8.294 11.366-8.294 20.147 0 15.693 7.398 28.134 22.195 37.325s32.998 13.773 54.605 13.773c23.194 0 42.598-4.48 58.189-13.389 15.462-9.062 23.194-25.728 23.194-49.997v-99.2c0-2.918 0.768-5.427 2.304-7.501s3.226-3.098 5.094-3.098c1.587 0 3.021 0.307 4.301 0.896s3.226 2.227 5.888 4.89l6.195-8.602c-7.987-9.318-16.87-15.872-26.598-19.61-6.118-2.406-12.595-3.61-19.405-3.61-12.134 0-20.992 3.558-26.598 10.624-3.2 3.994-5.53 9.958-6.989 17.818-11.315-11.341-24.115-19.354-38.4-24.013-8.678-2.944-17.203-4.429-25.6-4.429-11.213 0-21.683 3.584-31.411 10.726s-14.592 18.253-14.592 33.357c-0.026 18.381 8.858 33.024 26.598 43.853zM667.904 314.931c3.2 2.406 6.989 6.144 11.392 11.213v59.955c-10.931-2.662-20.531-6.886-28.8-12.621-14.003-9.779-20.992-22.195-20.992-37.325 0-8.96 2.022-15.744 6.093-20.352 4.070-4.634 8.627-6.938 13.696-6.938 6.682 0.026 12.877 2.022 18.611 6.067z" />
<glyph unicode="&#xe946;" glyph-name="icon-reduce" d="M435.2 281.6h25.6v102.4h-102.4v-25.6h51.2v-25.6h25.6v-51.2zM409.6 307.2h-25.6v25.6h25.6v-25.6zM384 281.6h-25.6v25.6h25.6v-25.6zM665.6 358.4v25.6h-102.4v-102.4h25.6v51.2h25.6v25.6h51.2zM640 307.2h-25.6v25.6h25.6v-25.6zM665.6 281.6h-25.6v25.6h25.6v-25.6zM588.8 588.8h-25.6v-102.4h102.4v25.6h-51.2v25.6h-25.6v51.2zM640 537.6h-25.6v25.6h25.6v-25.6zM665.6 563.2h-25.6v25.6h25.6v-25.6zM358.4 512v-25.6h102.4v102.4h-25.6v-51.2h-25.6v-25.6h-51.2zM409.6 537.6h-25.6v25.6h25.6v-25.6zM384 563.2h-25.6v25.6h25.6v-25.6z" />
<glyph unicode="&#xe947;" glyph-name="grad-arrows" d="M691.2 460.8h25.6v-25.6h-25.6v25.6zM665.6 486.4h25.6v-25.6h-25.6v25.6zM665.6 460.8h25.6v-25.6h-25.6v25.6zM665.6 435.2h25.6v-25.6h-25.6v25.6zM640 409.6h25.6v-25.6h-25.6v25.6zM640 512h25.6v-25.6h-25.6v25.6zM640 435.2h25.6v-25.6h-25.6v25.6zM640 486.4h25.6v-25.6h-25.6v25.6zM640 460.8h25.6v-25.6h-25.6v25.6zM614.4 460.8h25.6v-25.6h-25.6v25.6zM588.8 460.8h25.6v-25.6h-25.6v25.6zM563.2 460.8h25.6v-25.6h-25.6v25.6zM307.2 460.8h25.6v-25.6h-25.6v25.6zM332.8 486.4h25.6v-25.6h-25.6v25.6zM332.8 460.8h25.6v-25.6h-25.6v25.6zM332.8 435.2h25.6v-25.6h-25.6v25.6zM358.4 409.6h25.6v-25.6h-25.6v25.6zM358.4 512h25.6v-25.6h-25.6v25.6zM358.4 435.2h25.6v-25.6h-25.6v25.6zM358.4 486.4h25.6v-25.6h-25.6v25.6zM358.4 460.8h25.6v-25.6h-25.6v25.6zM384 460.8h25.6v-25.6h-25.6v25.6zM409.6 460.8h25.6v-25.6h-25.6v25.6zM435.2 460.8h25.6v-25.6h-25.6v25.6z" />
<glyph unicode="&#xe948;" glyph-name="store-snippet" d="M384 358.4h256v-51.2h-256v51.2zM332.8 460.8h51.2v-153.6h-51.2v153.6zM614.4 460.8h51.2v-153.6h-51.2v153.6zM473.6 588.8h51.2v-179.2h-51.2v179.2zM448 486.4h51.2v-51.2h-51.2v51.2zM499.2 486.4h51.2v-51.2h-51.2v51.2zM422.4 486.4h51.2v-25.6h-51.2v25.6zM473.6 486.4h51.2v-25.6h-51.2v25.6zM524.8 486.4h51.2v-25.6h-51.2v25.6z" />
<glyph unicode="&#xe949;" glyph-name="ico-click" d="M563.2 409.6v25.6h-25.6v25.6h-25.6v25.6h-25.6v25.6h-25.6v25.6h-25.6v-204.8h25.6v25.6h25.6v25.6h102.4v25.6z" />
<glyph unicode="&#xe94a;" glyph-name="ico-select" d="M640 384h-25.6v25.6h-25.6v25.6h-25.6v25.6h-25.6v25.6h-25.6v-204.8h25.6v25.6h25.6v25.6h102.4v25.6h-25.6zM640 588.8h-51.2v-25.6h-153.6v25.6h-76.8v-76.8h25.6v-128h-25.6v-76.8h76.8v25.6h51.2v25.6h-51.2v25.6h-25.6v128h25.6v25.6h153.6v-25.6h25.6v-76.8h25.6v76.8h25.6v76.8h-25.6zM409.6 332.8h-25.6v25.6h25.6v-25.6zM384 537.6v25.6h25.6v-25.6h-25.6zM640 537.6h-25.6v25.6h25.6v-25.6z" />
<glyph unicode="&#xe94b;" glyph-name="ico-var-big" d="M512 588.8c-84.838 0-153.6-68.762-153.6-153.6s68.762-153.6 153.6-153.6v51.2c-56.474 0-102.4 45.926-102.4 102.4s45.926 102.4 102.4 102.4c56.474 0 102.4-45.926 102.4-102.4v-25.6c-14.106 0-25.6 11.494-25.6 25.6 0 42.419-34.381 76.8-76.8 76.8s-76.8-34.381-76.8-76.8 34.381-76.8 76.8-76.8c19.763 0 37.581 7.68 51.2 19.942 13.619-12.262 31.437-19.942 51.2-19.942h51.2v76.8c0 84.838-68.762 153.6-153.6 153.6zM512 409.6c-14.106 0-25.6 11.494-25.6 25.6s11.494 25.6 25.6 25.6 25.6-11.494 25.6-25.6-11.494-25.6-25.6-25.6z" />
<glyph unicode="&#xe94c;" glyph-name="ico-navigator" d="M602.547 525.722c-24.192 24.192-56.346 37.504-90.522 37.504-34.202 0-66.355-13.312-90.522-37.504-24.192-24.192-37.504-56.32-37.504-90.522s13.312-66.355 37.504-90.522c24.192-24.192 56.346-37.478 90.522-37.478 34.202 0 66.355 13.312 90.522 37.478 49.946 49.894 49.946 131.123 0 181.043zM576.691 370.534c-17.28-17.28-40.243-26.778-64.666-26.778s-47.386 9.498-64.666 26.778-26.778 40.243-26.778 64.666c0 24.422 9.523 47.386 26.778 64.666s40.243 26.778 64.666 26.778c24.422 0 47.386-9.523 64.666-26.778 35.661-35.661 35.661-93.696 0-129.331zM457.062 380.237l76.314 33.613 33.613 76.314-76.314-33.613z" />
<glyph unicode="&#xe94d;" glyph-name="icon-more" d="M614.4 460.8v25.6h-25.6v-25.6h-25.6v-25.6h25.6v-25.6h25.6v25.6h25.6v25.6h-25.6zM512 460.8v25.6h-25.6v-25.6h-25.6v-25.6h25.6v-25.6h25.6v25.6h25.6v25.6h-25.6zM409.6 460.8v25.6h-25.6v-25.6h-25.6v-25.6h25.6v-25.6h25.6v25.6h25.6v25.6h-25.6z" />
<glyph unicode="&#xe94e;" glyph-name="icon-lists" d="M332.8 563.2h25.6v-25.6h-25.6v25.6zM358.4 588.8h25.6v-25.6h-25.6v25.6zM358.4 537.6h25.6v-25.6h-25.6v25.6zM384 563.2h25.6v-25.6h-25.6v25.6zM460.8 563.2h204.8v-25.6h-204.8v25.6zM332.8 460.8h25.6v-25.6h-25.6v25.6zM358.4 486.4h25.6v-25.6h-25.6v25.6zM358.4 435.2h25.6v-25.6h-25.6v25.6zM384 460.8h25.6v-25.6h-25.6v25.6zM460.8 460.8h204.8v-25.6h-204.8v25.6zM332.8 358.4h25.6v-25.6h-25.6v25.6zM358.4 384h25.6v-25.6h-25.6v25.6zM358.4 332.8h25.6v-25.6h-25.6v25.6zM384 358.4h25.6v-25.6h-25.6v25.6zM460.8 358.4h204.8v-25.6h-204.8v25.6z" />
<glyph unicode="&#xe94f;" glyph-name="ico-spacings" d="M435.2 614.4h25.6v-25.6h-25.6v25.6zM460.8 588.8h25.6v-25.6h-25.6v25.6zM486.4 614.4h25.6v-25.6h-25.6v25.6zM512 588.8h25.6v-25.6h-25.6v25.6zM537.6 614.4h25.6v-25.6h-25.6v25.6zM563.2 588.8h25.6v-25.6h-25.6v25.6zM588.8 614.4h25.6v-25.6h-25.6v25.6zM614.4 588.8h25.6v-25.6h-25.6v25.6zM640 614.4h25.6v-25.6h-25.6v25.6zM691.2 614.4h25.6v-25.6h-25.6v25.6zM665.6 537.6h25.6v-25.6h-25.6v25.6zM691.2 512h25.6v-25.6h-25.6v25.6zM665.6 486.4h25.6v-25.6h-25.6v25.6zM691.2 460.8h25.6v-25.6h-25.6v25.6zM665.6 435.2h25.6v-25.6h-25.6v25.6zM691.2 409.6h25.6v-25.6h-25.6v25.6zM665.6 384h25.6v-25.6h-25.6v25.6zM691.2 358.4h25.6v-25.6h-25.6v25.6zM665.6 588.8h25.6v-25.6h-25.6v25.6zM691.2 563.2h25.6v-25.6h-25.6v25.6zM281.6 563.2h25.6v-25.6h-25.6v25.6zM307.2 537.6h25.6v-25.6h-25.6v25.6zM281.6 512h25.6v-25.6h-25.6v25.6zM307.2 486.4h25.6v-25.6h-25.6v25.6zM281.6 460.8h25.6v-25.6h-25.6v25.6zM307.2 435.2h25.6v-25.6h-25.6v25.6zM281.6 409.6h25.6v-25.6h-25.6v25.6zM307.2 384h25.6v-25.6h-25.6v25.6zM281.6 358.4h25.6v-25.6h-25.6v25.6zM281.6 307.2h25.6v-25.6h-25.6v25.6zM281.6 614.4h25.6v-25.6h-25.6v25.6zM307.2 588.8h25.6v-25.6h-25.6v25.6zM332.8 614.4h25.6v-25.6h-25.6v25.6zM358.4 588.8h25.6v-25.6h-25.6v25.6zM384 614.4h25.6v-25.6h-25.6v25.6zM409.6 588.8h25.6v-25.6h-25.6v25.6zM358.4 512v-153.6h281.6v179.2h-281.6v-25.6zM614.4 512v-128h-230.4v128h230.4zM460.8 332.8h25.6v-25.6h-25.6v25.6zM486.4 307.2h25.6v-25.6h-25.6v25.6zM512 332.8h25.6v-25.6h-25.6v25.6zM537.6 307.2h25.6v-25.6h-25.6v25.6zM563.2 332.8h25.6v-25.6h-25.6v25.6zM588.8 307.2h25.6v-25.6h-25.6v25.6zM614.4 332.8h25.6v-25.6h-25.6v25.6zM640 307.2h25.6v-25.6h-25.6v25.6zM665.6 332.8h25.6v-25.6h-25.6v25.6zM691.2 307.2h25.6v-25.6h-25.6v25.6zM307.2 332.8h25.6v-25.6h-25.6v25.6zM332.8 307.2h25.6v-25.6h-25.6v25.6zM358.4 332.8h25.6v-25.6h-25.6v25.6zM384 307.2h25.6v-25.6h-25.6v25.6zM409.6 332.8h25.6v-25.6h-25.6v25.6zM435.2 307.2h25.6v-25.6h-25.6v25.6z" />
<glyph unicode="&#xe950;" glyph-name="ico_quit" d="M512 153.6c-155.29 0-281.6 124.8-281.6 278.221 0 74.317 29.286 144.205 82.483 196.736 15.36 15.13 40.218 15.155 55.578 0 15.334-15.155 15.334-39.757 0-54.912-38.349-37.862-59.469-88.243-59.469-141.824 0-110.592 91.059-200.576 203.008-200.576s203.008 89.984 203.008 200.576c0 53.632-21.12 103.987-59.494 141.875-15.386 15.13-15.386 39.731-0.051 54.886 15.36 15.181 40.269 15.181 55.552 0.026 53.274-52.506 82.586-122.419 82.586-196.787 0-153.421-126.31-278.221-281.6-278.221zM512 384c-28.288 0-51.2 24.653-51.2 55.014v222.771c0 30.387 22.912 55.014 51.2 55.014 28.262 0 51.2-24.627 51.2-55.014v-222.771c0-30.362-22.938-55.014-51.2-55.014z" />
<glyph unicode="&#xe951;" glyph-name="attention" d="M745.114 251.238l-210.202 369.203c-12.595 25.19-33.203 25.19-45.798 0l-210.202-369.203c-12.621-25.19 0.128-45.798 28.288-45.798h409.6c28.16 0 40.909 20.608 28.314 45.798zM512 282.24c-14.080 0-25.6 11.52-25.6 25.6s11.52 25.6 25.6 25.6 25.6-11.52 25.6-25.6-11.52-25.6-25.6-25.6zM537.6 384.64c0-14.080-11.52-25.6-25.6-25.6s-25.6 11.52-25.6 25.6v102.4c0 14.080 11.52 25.6 25.6 25.6s25.6-11.52 25.6-25.6v-102.4z" />
<glyph unicode="&#xe952;" glyph-name="detach" d="M614.4 332.8h-204.8v204.8h51.2v51.2h-102.4v-307.2h307.2v102.4h-51.2v-51.2zM512 588.8v-51.2h66.202l-84.301-84.301 36.198-36.198 84.301 84.301v-66.202h51.2v153.6h-153.6z" />
<glyph unicode="&#xe953;" glyph-name="folder" d="M512 563.2h-179.2v-256h358.4v204.8h-153.6z" />
<glyph unicode="&#xe954;" glyph-name="buoy" d="M574.438 390.861l54.784-54.784c22.656 26.752 36.378 61.312 36.378 99.123s-13.722 72.371-36.378 99.123l-54.784-54.784c18.867-26.522 18.867-62.157 0-88.678zM449.562 479.539l-54.784 54.784c-22.656-26.752-36.378-61.312-36.378-99.123s13.722-72.371 36.378-99.123l54.784 54.784c-18.867 26.522-18.867 62.157 0 88.678zM556.339 372.762c-26.522-18.867-62.157-18.867-88.678 0l-54.784-54.784c26.752-22.656 61.312-36.378 99.123-36.378s72.371 13.722 99.123 36.378l-54.784 54.784zM467.661 497.638c26.522 18.867 62.157 18.867 88.678 0l54.784 54.784c-26.752 22.656-61.312 36.378-99.123 36.378s-72.371-13.722-99.123-36.378l54.784-54.784z" />
<glyph unicode="&#xe955;" glyph-name="ico-bnav" d="M332.8 512v-25.6h25.6v-25.6h25.6v-25.6h-25.6v-25.6h-25.6v-25.6h332.8v128h-332.8zM614.4 435.2h-179.2v25.6h179.2v-25.6z" />
<glyph unicode="&#xe956;" glyph-name="icodetach" d="M537.6 563.2h-25.6v-25.6h25.6v-51.2h51.2v-25.6h25.6v102.4zM512 486.4h25.6v-25.6h-25.6v25.6zM460.8 435.2h25.6v-25.6h-25.6v25.6zM409.6 435.2h-25.6v-102.4h102.4v25.6h-25.6v51.2h-51.2z" />
<glyph unicode="&#xe957;" glyph-name="icoinspe" d="M423.885 344.678c-10.010-10.010-26.214-10.010-36.198 0l-72.397 72.397c-10.010 10.010-10.010 26.214 0 36.198v0c10.010 10.010 26.214 10.010 36.198 0l72.397-72.397c10.010-9.984 10.010-26.189 0-36.198v0zM315.29 417.101c-10.010 10.010-10.010 26.214 0 36.198l72.397 72.397c10.010 10.010 26.214 10.010 36.198 0v0c10.010-10.010 10.010-26.214 0-36.198l-72.397-72.397c-10.010-10.010-26.214-10.010-36.198 0v0zM600.115 525.722c10.010 10.010 26.214 10.010 36.198 0l72.397-72.397c10.010-10.010 10.010-26.214 0-36.198v0c-10.010-10.010-26.214-10.010-36.198 0l-72.397 72.397c-10.010 9.984-10.010 26.189 0 36.198v0zM708.71 453.299c10.010-10.010 10.010-26.214 0-36.198l-72.397-72.397c-10.010-10.010-26.214-10.010-36.198 0v0c-10.010 10.010-10.010 26.214 0 36.198l72.397 72.397c10.010 10.010 26.214 10.010 36.198 0v0zM503.603 304.947c-3.661-13.645-17.69-21.76-31.36-18.099v0c-13.645 3.661-21.76 17.69-18.099 31.36l66.253 247.27c3.661 13.645 17.69 21.76 31.36 18.099v0c13.645-3.661 21.76-17.69 18.099-31.36l-66.253-247.27z" />
<glyph unicode="&#xe958;" glyph-name="ico-var-big2" d="M675.328 362.010c0.051 0.128 0.102 0.256 0.179 0.41 10.778 22.784 15.693 45.286 15.693 72.781 0 98.816-80.41 179.2-179.2 179.2-98.816 0-179.2-80.384-179.2-179.2 0-98.79 80.384-179.2 179.2-179.2 14.131 0 25.6 11.443 25.6 25.6s-11.469 25.6-25.6 25.6c-70.579 0-128 57.421-128 128s57.421 128 128 128 128-57.421 128-128c0-13.158-1.536-24.013-4.608-34.483-19.942 6.886-34.406 25.651-34.406 47.898 0 4.557-1.51 8.602-3.584 12.314-11.162 36.813-45.005 63.872-85.402 63.872-49.408 0-89.6-40.192-89.6-89.6s40.192-89.6 89.6-89.6c27.008 0 50.97 12.262 67.405 31.232 18.074-18.227 42.957-29.542 70.451-30.080 0.358-0.026 0.691-0.102 1.024-0.102s0.614-0.102 0.947-0.102c1.382 0 2.56 0.563 3.891 0.794 1.766 0.282 3.507 0.41 5.197 1.050 1.638 0.614 2.97 1.638 4.429 2.56 1.331 0.845 2.714 1.51 3.866 2.611 1.408 1.306 2.381 2.944 3.456 4.531 0.691 1.024 1.664 1.766 2.227 2.918 0.179 0.333 0.256 0.666 0.435 0.998zM512 396.8c-21.171 0-38.4 17.229-38.4 38.4s17.229 38.4 38.4 38.4 38.4-17.229 38.4-38.4-17.229-38.4-38.4-38.4z" />
<glyph unicode="&#xe959;" glyph-name="miro" d="M486.4 384h25.6v-76.8h-25.6v76.8zM358.4 460.8h76.8v-25.6h-76.8v25.6zM486.4 588.8h25.6v-76.8h-25.6v76.8zM563.2 460.8h76.8v-25.6h-76.8v25.6zM537.6 448c0-21.208-17.192-38.4-38.4-38.4s-38.4 17.192-38.4 38.4c0 21.208 17.192 38.4 38.4 38.4s38.4-17.192 38.4-38.4z" />
<glyph unicode="&#xe95a;" glyph-name="ico-click2" d="M563.2 435.2v25.6h-25.6v25.6h-25.6v25.6h-25.6v25.6h-25.6v25.6h-25.6v25.6h-25.6v-256h25.6v25.6h25.6v25.6h25.6v-25.6h25.6v-51.2h51.2v51.2h-25.6v51.2h51.2v25.6h-25.6z" />
<glyph unicode="&#xe95b;" glyph-name="ico-select2" d="M512 307.2h-102.4v25.6h-25.6v204.8h25.6v25.6h204.8v-25.6h25.6v-102.4h25.6v102.4h25.6v76.8h-76.8v-25.6h-204.8v25.6h-76.8v-76.8h25.6v-204.8h-25.6v-76.8h76.8v25.6h102.4v25.6zM640 588.8h25.6v-25.6h-25.6v25.6zM358.4 588.8h25.6v-25.6h-25.6v25.6zM384 281.6h-25.6v25.6h25.6v-25.6zM716.8 307.2v25.6h-25.6v25.6h-25.6v25.6h-25.6v25.6h-25.6v25.6h-25.6v25.6h-25.6v25.6h-25.6v-281.6h25.6v25.6h25.6v25.6h25.6v25.6h128v25.6h-25.6z" />
<glyph unicode="&#xe95c;" glyph-name="ico-no" d="M588.8 358.4h-51.2v-51.2h102.4v102.4h-51.2zM435.2 409.6h-51.2v-102.4h102.4v51.2h-51.2zM384 563.2v-102.4h51.2v51.2h51.2v51.2h-51.2zM588.8 563.2h-51.2v-51.2h51.2v-51.2h51.2v102.4z" />
<glyph unicode="&#xe95d;" glyph-name="ico-ot" d="M486.4 460.8h51.2v-51.2h-51.2v51.2zM614.4 460.8v76.8h-76.8v51.2h-51.2v-51.2h-76.8v-76.8h-51.2v-51.2h51.2v-76.8h76.8v-51.2h51.2v51.2h76.8v76.8h51.2v51.2h-51.2zM512 384h-51.2v102.4h102.4v-102.4h-51.2z" />
<glyph unicode="&#xe95e;" glyph-name="ico-pa" d="M588.8 358.4h-51.2v-51.2h102.4v102.4h-51.2zM435.2 409.6h-51.2v-102.4h102.4v51.2h-51.2zM435.2 512h51.2v51.2h-102.4v-102.4h51.2zM588.8 563.2h-51.2v-51.2h51.2v-51.2h51.2v102.4zM563.2 460.8h-102.4v-51.2h102.4z" />
<glyph unicode="&#xe95f;" glyph-name="ico-te" d="M588.8 588.8h-204.8v-281.6h256v281.6h-51.2zM588.8 486.4v-128h-153.6v179.2h153.6v-51.2zM460.8 512v-51.2h102.4v51.2h-51.2zM460.8 435.2v-51.2h102.4v51.2h-51.2z" />
<glyph unicode="&#xe960;" glyph-name="icon-snipps" horiz-adv-x="1114" d="M588.8 588.8h-204.8v-25.6h-25.6v-256h25.6v-25.6h256v25.6h25.6v204.8l-76.8 76.8zM512 563.2h51.2v-76.8h-51.2v76.8zM614.4 332.8h-204.8v102.4h204.8v-102.4z" />
<glyph unicode="&#xe961;" glyph-name="ico-add-file" d="M614.4 563.2v25.6h-25.6v25.6h-128v-51.2h-51.2v-51.2h-51.2v-102.4h76.8v-51.2h51.2v-76.8h51.2v51.2h51.2v51.2h51.2v179.2h-25.6zM563.2 384v-25.6h-25.6v102.4h-25.6v25.6h-25.6v25.6h-51.2v25.6h76.8v-25.6h25.6v-25.6h25.6v-102.4zM614.4 409.6h-25.6v102.4h-25.6v25.6h-25.6v25.6h-51.2v25.6h76.8v-25.6h25.6v-25.6h25.6v-128zM409.6 332.8v51.2h-51.2v-51.2h-51.2v-51.2h51.2v-51.2h51.2v51.2h51.2v51.2h-25.6z" />
<glyph unicode="&#xe962;" glyph-name="ico-file1" d="M614.4 563.2v25.6h-25.6v25.6h-128v-51.2h-51.2v-51.2h-51.2v-230.4h179.2v51.2h51.2v51.2h51.2v179.2h-25.6zM563.2 358.4h-25.6v102.4h-25.6v25.6h-25.6v25.6h-51.2v25.6h76.8v-25.6h25.6v-25.6h25.6v-128zM614.4 409.6h-25.6v102.4h-25.6v25.6h-25.6v25.6h-51.2v25.6h76.8v-25.6h25.6v-25.6h25.6v-128z" />
<glyph unicode="&#xe963;" glyph-name="deth" d="M384 563.2h102.4v-230.4h-102.4v230.4zM512 563.2h25.6v-25.6h-25.6v25.6zM563.2 563.2h25.6v-25.6h-25.6v25.6zM614.4 563.2h25.6v-25.6h-25.6v25.6zM614.4 512h25.6v-25.6h-25.6v25.6zM614.4 460.8h25.6v-25.6h-25.6v25.6zM614.4 409.6h25.6v-25.6h-25.6v25.6zM614.4 358.4h25.6v-25.6h-25.6v25.6zM563.2 358.4h25.6v-25.6h-25.6v25.6zM512 358.4h25.6v-25.6h-25.6v25.6z" />
<glyph unicode="&#xe964;" glyph-name="arrs" d="M460.8 179.2v-25.6h25.6v-25.6h51.2v25.6h25.6v25.6h25.6v25.6h-51.2v76.8h-51.2v-76.8h-51.2v-25.6zM793.6 384h25.6v25.6h25.6v51.2h-25.6v25.6h-25.6v25.6h-25.6v-51.2h-76.8v-51.2h76.8v-51.2h25.6z" />
<glyph unicode="&#xe965;" glyph-name="arrs2" d="M230.4 486.4h-25.6v-25.6h-25.6v-51.2h25.6v-25.6h25.6v-25.6h25.6v51.2h76.8v51.2h-76.8v51.2h-25.6zM460.8 179.2v-25.6h25.6v-25.6h51.2v25.6h25.6v25.6h25.6v25.6h-51.2v76.8h-51.2v-76.8h-51.2v-25.6zM793.6 384h25.6v25.6h25.6v51.2h-25.6v25.6h-25.6v25.6h-25.6v-51.2h-76.8v-51.2h76.8v-51.2h25.6zM563.2 691.2v25.6h-25.6v25.6h-51.2v-25.6h-25.6v-25.6h-25.6v-25.6h51.2v-76.8h51.2v76.8h51.2v25.6z" />
<glyph unicode="&#xe966;" glyph-name="mini-cancel" d="M537.6 460.8h-25.6v51.2h-25.6v-25.6h-25.6v-25.6h-25.6v-25.6h25.6v-25.6h25.6v-25.6h25.6v51.2h25.6v-51.2h25.6v76.8z" />
<glyph unicode="&#xe967;" glyph-name="arrs4" d="M230.4 486.4h-25.6v-25.6h-25.6v-51.2h25.6v-25.6h25.6v-25.6h25.6v51.2h76.8v51.2h-76.8v51.2h-25.6zM460.8 179.2v-25.6h25.6v-25.6h51.2v25.6h25.6v25.6h25.6v25.6h-51.2v76.8h-51.2v-76.8h-51.2v-25.6zM563.2 691.2v25.6h-25.6v25.6h-51.2v-25.6h-25.6v-25.6h-25.6v-25.6h51.2v-76.8h51.2v76.8h51.2v25.6z" />
<glyph unicode="&#xe968;" glyph-name="mini-des" d="M537.6 512h-102.4v-102.4h25.6v-25.6h76.8v25.6h25.6v102.4h-25.6zM537.6 460.8v-25.6h-76.8v51.2h76.8v-25.6z" />
<glyph unicode="&#xe969;" glyph-name="mini-imp" d="M486.4 512v-76.8h25.6v76.8zM486.4 409.6h25.6v-25.6h-25.6v25.6z" />
<glyph unicode="&#xe96a;" glyph-name="rfs" d="M393.37 491.622h-31.36v-37.478h31.36c11.699 0 20.685 7.091 20.685 18.944 0.026 11.443-8.96 18.534-20.685 18.534zM512 742.4l-256-147.2v-294.4l256-147.2 256 147.2v294.4l-256 147.2zM411.136 378.778l-27.392 49.331h-21.734v-49.331h-29.67v138.854h65.229c29.056 0 47.027-18.944 47.027-44.774 0-24.346-15.693-37.683-30.72-41.216l31.565-52.89h-34.304zM565.402 491.622h-68.992v-29.133h67.507v-26.010h-67.507v-57.677h-29.67v138.829h98.662v-26.010zM635.853 376.294c-26.957 0-46.208 8.96-59.366 22.067l16.307 23.117c9.83-10.214 25.088-18.944 44.314-18.944 16.512 0 24.243 7.296 24.243 15.411 0 24.141-80.256 7.296-80.256 59.546 0 23.117 20.070 42.266 52.89 42.266 22.144 0 40.55-6.656 54.349-19.354l-16.512-22.067c-11.29 10.419-26.342 15.206-40.55 15.206-12.544 0-19.635-5.402-19.635-13.747 0-21.862 80.051-7.066 80.051-58.906-0.026-25.446-18.432-44.595-55.834-44.595z" />
<glyph unicode="&#xe96b;" glyph-name="chioder" d="M281.6 588.8h25.6v-25.6h-25.6v25.6zM332.8 588.8h25.6v-25.6h-25.6v25.6zM358.4 563.2h25.6v-25.6h-25.6v25.6zM307.2 563.2h25.6v-25.6h-25.6v25.6zM384 588.8h25.6v-25.6h-25.6v25.6zM537.6 563.2h-25.6v25.6h-25.6v-25.6h-25.6v-25.6h-25.6v-25.6h128v25.6h-25.6zM588.8 588.8h25.6v-25.6h-25.6v25.6zM640 588.8h25.6v-25.6h-25.6v25.6zM614.4 563.2h25.6v-25.6h-25.6v25.6zM665.6 563.2h25.6v-25.6h-25.6v25.6zM691.2 588.8h25.6v-25.6h-25.6v25.6zM691.2 537.6h25.6v-25.6h-25.6v25.6zM665.6 512h25.6v-25.6h-25.6v25.6zM691.2 486.4h25.6v-25.6h-25.6v25.6zM665.6 460.8h25.6v-25.6h-25.6v25.6zM691.2 435.2h25.6v-25.6h-25.6v25.6zM665.6 409.6h25.6v-25.6h-25.6v25.6zM691.2 384h25.6v-25.6h-25.6v25.6zM665.6 358.4h25.6v-25.6h-25.6v25.6zM691.2 332.8h25.6v-25.6h-25.6v25.6zM640 332.8h25.6v-25.6h-25.6v25.6zM614.4 358.4h25.6v-25.6h-25.6v25.6zM588.8 332.8h25.6v-25.6h-25.6v25.6zM512 384h-76.8v-25.6h25.6v-25.6h25.6v-25.6h25.6v25.6h25.6v25.6h25.6v25.6h-25.6zM384 332.8h25.6v-25.6h-25.6v25.6zM358.4 358.4h25.6v-25.6h-25.6v25.6zM332.8 332.8h25.6v-25.6h-25.6v25.6zM307.2 358.4h25.6v-25.6h-25.6v25.6zM281.6 332.8h25.6v-25.6h-25.6v25.6zM281.6 384h25.6v-25.6h-25.6v25.6zM307.2 409.6h25.6v-25.6h-25.6v25.6zM281.6 435.2h25.6v-25.6h-25.6v25.6zM307.2 460.8h25.6v-25.6h-25.6v25.6zM281.6 486.4h25.6v-25.6h-25.6v25.6zM307.2 512h25.6v-25.6h-25.6v25.6zM281.6 537.6h25.6v-25.6h-25.6v25.6z" />
<glyph unicode="&#xe96c;" glyph-name="ico-opa" d="M557.235 552.883c-19.251 19.251-43.622 29.747-68.736 32.512-11.725 1.306-23.578 1.28-35.174-1.024-9.267-1.843-18.202-5.197-26.88-9.344-7.808-3.712-15.181-8.448-22.17-14.029-3.354-2.662-6.861-5.043-9.958-8.141s-5.453-6.605-8.141-9.958c-5.581-6.989-10.317-14.362-14.029-22.17-4.122-8.678-7.501-17.613-9.344-26.88-2.304-11.597-2.33-23.45-1.024-35.174 2.79-25.088 13.286-49.485 32.512-68.736 13.082-13.082 28.621-21.888 45.056-27.366 5.478-16.435 14.285-31.974 27.366-45.056 3.098-3.098 6.605-5.453 9.958-8.141 45.235-36.122 111.053-33.741 152.96 8.141 41.882 41.882 44.262 107.725 8.141 152.96-2.662 3.354-5.043 6.861-8.141 9.958-13.082 13.082-28.621 21.888-45.056 27.366-5.478 16.461-14.285 32.026-27.341 45.082zM611.533 335.667c-34.944-34.944-91.776-34.944-126.72 0-6.349 6.349-11.162 13.594-15.206 21.146 9.574-0.512 19.149-0.205 28.595 1.664l-39.501 39.501c-0.128 10.496 1.766 20.915 5.299 30.899l61.056-61.056c7.808 3.712 15.181 8.448 22.17 14.029l-70.579 70.579c2.56 3.405 5.043 6.861 8.141 9.958s6.554 5.581 9.958 8.141l70.579-70.579c5.581 6.989 10.317 14.362 14.029 22.17l-61.056 61.056c9.984 3.533 20.429 5.427 30.899 5.299l39.501-39.501c1.869 9.446 2.176 19.021 1.664 28.595 7.552-4.045 14.797-8.832 21.146-15.206 34.944-34.918 34.944-91.75 0.026-126.694z" />
<glyph unicode="&#xe96d;" glyph-name="ico-hue" d="M512 550.4c-63.616 0-115.2-51.584-115.2-115.2s51.584-115.2 115.2-115.2 115.2 51.584 115.2 115.2-51.584 115.2-115.2 115.2zM512 524.8c20.096 0 38.451-6.886 53.402-18.074l-27.546-27.546c-7.603 4.48-16.384 7.219-25.856 7.219-28.288 0-51.2-22.912-51.2-51.2 0-9.472 2.739-18.253 7.245-25.856l-27.546-27.546c-11.213 14.95-18.099 33.306-18.099 53.402 0 49.408 40.192 89.6 89.6 89.6zM512 345.6c-20.096 0-38.451 6.886-53.402 18.099l27.546 27.546c7.603-4.506 16.384-7.245 25.856-7.245 28.288 0 51.2 22.912 51.2 51.2 0 9.472-2.765 18.253-7.245 25.856l27.546 27.546c11.213-14.95 18.099-33.306 18.099-53.402 0-49.408-40.192-89.6-89.6-89.6z" />
<glyph unicode="&#xe96e;" glyph-name="ico-inv" d="M384 563.2v-256h256v256h-256zM627.2 320h-230.4l42.803 42.803c-18.534 18.509-30.003 44.109-30.003 72.397 0 56.55 45.85 102.4 102.4 102.4 28.288 0 53.888-11.469 72.397-30.003l42.803 42.803v-230.4zM614.4 435.2c0 28.288-11.469 53.888-30.003 72.397l-144.819-144.819c18.534-18.509 44.134-29.978 72.422-29.978 56.55 0 102.4 45.85 102.4 102.4z" />
<glyph unicode="&#xe96f;" glyph-name="ico-satu" d="M384 435.2c0-14.138-11.462-25.6-25.6-25.6s-25.6 11.462-25.6 25.6c0 14.138 11.462 25.6 25.6 25.6s25.6-11.462 25.6-25.6zM593.459 516.659c-20.838 20.838-49.638 33.741-81.459 33.741-63.616 0-115.2-51.584-115.2-115.2 0-31.821 12.902-60.621 33.741-81.459s49.638-33.741 81.459-33.741c63.616 0 115.2 51.584 115.2 115.2 0 31.821-12.902 60.621-33.741 81.459zM575.36 371.84c-16.922-16.922-39.424-26.24-63.36-26.24s-46.438 9.318-63.36 26.24c-16.922 16.922-26.24 39.424-26.24 63.36h179.2c0-23.936-9.318-46.438-26.24-63.36zM646.221 326.579c0-14.138-11.462-25.6-25.6-25.6s-25.6 11.462-25.6 25.6c0 14.138 11.462 25.6 25.6 25.6s25.6-11.462 25.6-25.6zM428.979 543.821c0-14.138-11.462-25.6-25.6-25.6s-25.6 11.462-25.6 25.6c0 14.138 11.462 25.6 25.6 25.6s25.6-11.462 25.6-25.6zM646.221 543.821c0-14.138-11.462-25.6-25.6-25.6s-25.6 11.462-25.6 25.6c0 14.138 11.462 25.6 25.6 25.6s25.6-11.462 25.6-25.6zM428.979 326.579c0-14.138-11.462-25.6-25.6-25.6s-25.6 11.462-25.6 25.6c0 14.138 11.462 25.6 25.6 25.6s25.6-11.462 25.6-25.6zM691.2 435.2c0-14.138-11.462-25.6-25.6-25.6s-25.6 11.462-25.6 25.6c0 14.138 11.462 25.6 25.6 25.6s25.6-11.462 25.6-25.6zM537.6 588.8c0-14.138-11.462-25.6-25.6-25.6s-25.6 11.462-25.6 25.6c0 14.138 11.462 25.6 25.6 25.6s25.6-11.462 25.6-25.6zM537.6 281.6c0-14.138-11.462-25.6-25.6-25.6s-25.6 11.462-25.6 25.6c0 14.138 11.462 25.6 25.6 25.6s25.6-11.462 25.6-25.6z" />
<glyph unicode="&#xe970;" glyph-name="ico-bri" d="M576 435.2c0-35.346-28.654-64-64-64s-64 28.654-64 64c0 35.346 28.654 64 64 64s64-28.654 64-64zM584.397 380.902c-4.992 4.992-13.107 4.992-18.099 0s-4.992-13.107 0-18.099l54.323-54.323c2.509-2.509 5.786-3.738 9.062-3.738s6.554 1.254 9.062 3.738c4.992 4.992 4.992 13.107 0 18.099l-54.349 54.323zM439.578 489.523c2.509-2.509 5.786-3.738 9.062-3.738s6.554 1.254 9.062 3.738c4.992 4.992 4.992 13.107 0 18.099l-54.298 54.298c-4.992 4.992-13.107 4.992-18.099 0s-4.992-13.107 0-18.099l54.272-54.298zM575.36 485.76c3.277 0 6.554 1.254 9.062 3.738l54.323 54.298c4.992 4.992 4.992 13.107 0 18.099s-13.107 4.992-18.099 0l-54.323-54.298c-4.992-4.992-4.992-13.107 0-18.099 2.483-2.483 5.76-3.738 9.037-3.738zM439.578 380.902l-54.298-54.323c-4.992-4.992-4.992-13.107 0-18.099 2.509-2.509 5.786-3.738 9.062-3.738s6.554 1.254 9.062 3.738l54.298 54.323c4.992 4.992 4.992 13.107 0 18.099s-13.107 4.992-18.125 0zM678.4 448h-76.8c-7.066 0-12.8-5.734-12.8-12.8s5.734-12.8 12.8-12.8h76.8c7.066 0 12.8 5.734 12.8 12.8s-5.734 12.8-12.8 12.8zM435.2 435.2c0 7.066-5.734 12.8-12.8 12.8h-76.8c-7.066 0-12.8-5.734-12.8-12.8s5.734-12.8 12.8-12.8h76.8c7.066 0 12.8 5.734 12.8 12.8zM512 512c7.066 0 12.8 5.734 12.8 12.8v76.8c0 7.066-5.734 12.8-12.8 12.8s-12.8-5.734-12.8-12.8v-76.8c0-7.066 5.734-12.8 12.8-12.8zM512 358.4c-7.066 0-12.8-5.734-12.8-12.8v-76.8c0-7.066 5.734-12.8 12.8-12.8s12.8 5.734 12.8 12.8v76.8c0 7.066-5.734 12.8-12.8 12.8z" />
<glyph unicode="&#xe971;" glyph-name="ico-con" d="M593.459 353.741c20.838 20.838 33.741 49.638 33.741 81.459 0 63.616-51.584 115.2-115.2 115.2-31.821 0-60.621-12.902-81.459-33.741s-33.741-49.638-33.741-81.459c0-63.616 51.584-115.2 115.2-115.2 31.821 0 60.621 12.902 81.459 33.741zM448.64 371.84c-16.922 16.922-26.24 39.424-26.24 63.36s9.318 46.438 26.24 63.36c16.922 16.922 39.424 26.24 63.36 26.24v-179.2c-23.936 0-46.438 9.318-63.36 26.24z" />
<glyph unicode="&#xe972;" glyph-name="ico-blu" d="M575.36 480l-63.36 63.36-63.36-63.36c-34.995-34.995-34.995-91.725 0-126.72s91.725-34.995 126.72 0c34.995 34.995 34.995 91.725 0 126.72zM512.64 366.106c-7.066 0-12.8 5.734-12.8 12.8s5.734 12.8 12.8 12.8c13.389 0 24.294 10.906 24.294 24.294 0 7.066 5.734 12.8 12.8 12.8s12.8-5.734 12.8-12.8c0.026-27.52-22.349-49.894-49.894-49.894z" />
<glyph unicode="&#xe973;" glyph-name="ico-sep" d="M665.6 550.4l-307.2-230.4h307.2z" />
<glyph unicode="&#xe974;" glyph-name="ico-tabn" d="M640 665.6h-256c-28.288 0-51.2-22.912-51.2-51.2v-358.4c0-28.288 22.912-51.2 51.2-51.2h256c28.288 0 51.2 22.912 51.2 51.2v358.4c0 28.288-22.912 51.2-51.2 51.2zM537.6 230.4h-51.2v51.2h51.2v-51.2zM640 307.2h-256v307.2h256v-307.2z" />
<glyph unicode="&#xe975;" glyph-name="mini-all" d="M435.2 512h128v25.6h-153.6v-102.4h-25.6v-25.6h128v25.6h-76.8zM537.6 486.4v-128h76.8v128h-76.8zM588.8 409.6h-25.6v51.2h25.6v-51.2z" />
<glyph unicode="&#xe976;" glyph-name="mini-mob" d="M563.2 537.6h-128v-179.2h128v179.2zM460.8 435.2v76.8h76.8v-76.8h-76.8zM486.4 384v25.6h25.6v-25.6h-25.6z" />
<glyph unicode="&#xe977;" glyph-name="mini-tab" d="M409.6 563.2v-230.4h179.2v230.4h-179.2zM512 358.4h-25.6v25.6h25.6v-25.6zM563.2 409.6h-128v128h128v-128z" />
<glyph unicode="&#xe978;" glyph-name="trans" d="M281.6 409.6h25.6v-25.6h-25.6v25.6zM281.6 460.8h25.6v-25.6h-25.6v25.6zM281.6 512h25.6v-25.6h-25.6v25.6zM332.8 512h25.6v-25.6h-25.6v25.6zM384 512h25.6v-25.6h-25.6v25.6zM486.4 512h25.6v-25.6h-25.6v25.6zM537.6 512h25.6v-25.6h-25.6v25.6zM537.6 460.8h25.6v-25.6h-25.6v25.6zM537.6 409.6h25.6v-25.6h-25.6v25.6zM537.6 307.2h25.6v-25.6h-25.6v25.6zM486.4 307.2h25.6v-25.6h-25.6v25.6zM435.2 307.2h25.6v-25.6h-25.6v25.6zM384 307.2h25.6v-25.6h-25.6v25.6zM332.8 307.2h25.6v-25.6h-25.6v25.6zM281.6 307.2h25.6v-25.6h-25.6v25.6zM281.6 358.4h25.6v-25.6h-25.6v25.6zM435.2 588.8v-102.4h25.6v76.8h230.4v-204.8h-153.6v-25.6h179.2v256z" />
</font>
</defs>
</svg>
